<svg xmlns="http://www.w3.org/2000/svg">
<defs>
<font
   vert-adv-y="1024"
   vert-origin-y="768"
   vert-origin-x="512"
   horiz-origin-y="0"
   horiz-origin-x="0"
   font-weight="700"
   style="fill-rule:nonzero"
   font-variant="normal"
   horiz-adv-x="776"
   id="FontID3">
	<font-face
   id="font-face988"
   font-family="Verdana">
		<font-face-src>
			<font-face-name
   name="Verdana Bold" />
		</font-face-src>
	</font-face>
   <missing-glyph
   id="missing-glyph992"><path
     id="path990"
     d="M0 0z" /></missing-glyph>
   <glyph
   id="glyph994"
   d="M437.995 629.996l-13.1609 0c-7.82906,2.17324 -18.0068,4.83242 -30.5063,7.66708 -12.4995,2.83466 -25.8224,4.33298 -40.1577,4.33298 -34.3399,0 -57.6651,-6.16876 -69.8406,-18.3308 -12.162,-12.3375 -18.3308,-36.1621 -18.3308,-71.3254l0 -4.34648 134.997 0 0 -118.988 -128.99 0 0 -429.005 -176.005 0 0 429.005 -74.997 0 0 118.988 74.997 0 0 15.1722c0,67.3299 17.8314,117.665 53.4941,151.33 35.5007,33.6649 89.5077,50.4974 161.67,50.4974 25.9979,0 49.674,-0.823401 70.664,-2.65918 21.1654,-1.83578 39.8337,-4.171 56.1667,-7.16764l0 -125.17z"
   horiz-adv-x="422"
   unicode="f" />
   <glyph
   id="glyph996"
   d="M368.506 -14.9967c-47.8382,0 -91.5055,5.66932 -131.002,17.1699 -39.5097,11.3251 -73.9981,28.8325 -103.168,52.6572 -29.008,23.6761 -51.4963,53.6695 -67.5054,89.8317 -15.8336,36.1756 -23.8246,78.3446 -23.8246,126.844 0,51.1588 8.49048,95.3255 25.6604,132.325 16.9945,37.1745 40.8326,67.8293 71.5009,92.3424 29.4939,22.9877 63.6718,39.9957 102.493,50.6594 38.6728,10.8392 78.844,16.1711 120.5,16.1711 37.512,0 72.0003,-4.00902 103.506,-12.1755 31.5052,-8.16652 60.9991,-18.8302 88.3334,-31.8292l0 -149.994 -24.837 0c-6.83018,5.8313 -14.9967,12.6615 -24.6615,20.3286 -9.50285,7.82906 -21.3274,15.4961 -35.3387,22.8392 -13.3229,7.15414 -27.9956,13.1609 -43.8292,17.8314 -15.9956,4.65694 -34.5018,6.99216 -55.5053,6.99216 -46.8259,0 -82.826,-14.8347 -108,-44.6661 -25.161,-29.8314 -37.8224,-70.1645 -37.8224,-121.337 0,-52.6572 12.9989,-92.6663 38.8348,-119.987 25.8224,-27.3342 62.322,-41.0081 109.823,-41.0081 22.1778,0 42.0069,2.4972 59.6763,7.5051 17.8314,5.16988 32.4906,11.1632 44.1667,17.9933 11.0012,6.50622 20.828,13.3364 29.1565,20.504 8.50398,7.16764 16.333,14.1598 23.5007,21.0035l24.837 0 0 -149.67c-27.6717,-12.9989 -56.5042,-23.1632 -86.6596,-30.8303 -30.0069,-7.66708 -63.3344,-11.5006 -99.834,-11.5006z"
   horiz-adv-x="588"
   unicode="c" />
   <glyph
   id="glyph998"
   d="M434 4.67044c-18.8302,-5.0079 -38.9968,-8.84143 -60.1623,-11.5006 -21.1654,-2.83466 -47.1768,-4.171 -77.8316,-4.171 -68.5042,0 -119.501,13.8358 -152.842,41.5075 -33.503,27.6582 -50.16,74.997 -50.16,142.165l0 256.334 -72.0003 0 0 118.988 72.0003 0 0 157.013 175.992 0 0 -157.013 165.004 0 0 -118.988 -165.004 0 0 -194.674c0,-19.3297 0.175479,-36.1621 0.49944,-50.4974 0.337459,-14.3353 3.01014,-27.1722 7.84255,-38.6728 4.49496,-11.3251 12.6615,-20.4905 24.1621,-27.1587 11.6626,-6.6682 28.4951,-10.0023 50.6729,-10.0023 9.1654,0 21.1654,1.99776 36.0002,5.99328 14.8212,4.00902 25.3229,7.66708 31.1542,11.0012l14.6727 0 0 -120.325z"
   horiz-adv-x="455"
   unicode="t" />
   <glyph
   id="glyph1000"
   d="M799.995 363.336c0,-115.83 -33.1655,-207.834 -99.6585,-276.001 -66.5065,-68.1668 -158.336,-102.331 -275.502,-102.331 -117.004,0 -208.671,34.1644 -275.164,102.331 -66.5065,68.1668 -99.672,160.172 -99.672,276.001 0,116.666 33.1655,208.995 99.672,276.825 66.493,67.8428 158.16,101.845 275.164,101.845 116.504,0 208.172,-34.0024 275.002,-101.845 66.8304,-67.8293 100.158,-160.158 100.158,-276.825zm-248.667 -184.172c18.1688,22.1643 31.6672,48.1757 40.5086,78.3311 8.82794,30.1689 13.1609,65.5076 13.1609,106.34 0,43.4918 -4.9944,80.6663 -15.1587,111.335 -10.0023,30.4928 -23.3387,55.3298 -39.5097,74.1601 -16.657,19.5051 -35.8247,33.6649 -57.4896,42.5064 -21.6784,8.82794 -44.1667,13.1609 -67.5054,13.1609 -23.8381,0 -46.1644,-4.1575 -67.1679,-12.6615 -21.1654,-8.50398 -40.3331,-22.5018 -58.0025,-42.0069 -16.333,-18.3308 -29.4939,-43.3298 -39.8337,-75.4964 -10.1643,-32.0046 -15.3342,-69.1657 -15.3342,-111.497 0,-43.3298 5.0079,-80.3423 14.8347,-110.673 10.0023,-30.4928 23.1632,-55.3298 39.3343,-74.4975 16.333,-19.1677 35.3387,-33.3275 57.1656,-42.4929 21.8404,-9.17889 44.8416,-13.6739 69.0037,-13.6739 24.0001,0 47.0013,4.67044 68.8282,13.9978 21.8404,9.1654 40.8326,23.6761 57.1656,43.1678z"
   horiz-adv-x="850"
   unicode="O" />
   <glyph
   id="glyph1002"
   d="M633.006 0l-176.005 0 0 271.668c0,22.1643 -1.16086,44.1667 -3.3341,66.169 -2.33522,22.0023 -6.33074,38.1599 -11.8381,48.4997 -6.49272,12.0001 -15.9956,20.828 -28.4951,26.3353 -12.4995,5.49384 -30.0069,8.3285 -52.3332,8.3285 -15.9956,0 -32.1666,-2.67268 -48.6616,-7.82906 -16.333,-5.16988 -34.1779,-13.4984 -53.3456,-24.837l0 -388.335 -175.992 0 0 547.993 175.992 0 0 -60.6617c31.1677,24.4995 61.1746,43.1678 89.8452,56.1667 28.8325,12.9989 60.6617,19.5051 95.663,19.5051 59.1634,0 105.328,-17.1699 138.669,-51.6718 33.1655,-34.5018 49.836,-85.9981 49.836,-154.664l0 -356.668z"
   horiz-adv-x="712"
   unicode="n" />
   <glyph
   id="glyph1004"
   d="M613.002 586.005l-332.006 0 0 -135.011 308.006 0 0 -140.991 -308.006 0 0 -310.004 -187.992 0 0 726.995 519.998 0 0 -140.991z"
   horiz-adv-x="650"
   unicode="F" />
   <glyph
   id="glyph1006"
   d="M633.006 0l-176.005 0 0 271.668c0,22.1643 -1.16086,44.1667 -3.3341,66.169 -2.33522,22.0023 -6.33074,38.1599 -11.8381,48.4997 -6.49272,12.0001 -15.9956,20.828 -28.4951,26.3353 -12.4995,5.49384 -30.0069,8.3285 -52.3332,8.3285 -15.9956,0 -32.1666,-2.67268 -48.6616,-7.82906 -16.333,-5.16988 -34.1779,-13.4984 -53.3456,-24.837l0 -388.335 -175.992 0 0 759.999 175.992 0 0 -272.667c31.1677,24.4995 61.1746,43.1678 89.8452,56.1667 28.8325,12.9989 60.6617,19.5051 95.663,19.5051 59.1634,0 105.328,-17.1699 138.669,-51.6718 33.1655,-34.5018 49.836,-85.9981 49.836,-154.664l0 -356.668z"
   horiz-adv-x="712"
   unicode="h" />
   <glyph
   id="glyph1008"
   d="M623.004 241l-402.009 0c2.67268,-43.0058 19.0057,-75.9958 48.9991,-98.8351 30.1689,-22.8257 74.511,-34.1644 133.175,-34.1644 36.999,0 72.9992,6.83018 107.825,20.3286 34.8393,13.4984 62.3355,28.1711 82.5021,43.6672l19.5051 0 0 -141.49c-39.6717,-16.0091 -77.1702,-27.5097 -112.333,-34.6773 -35.1633,-7.16764 -74.1736,-10.8257 -116.666,-10.8257 -110.174,0 -194.498,24.6615 -253.162,74.1601 -58.502,49.4985 -87.8339,120.001 -87.8339,211.506 0,90.4931 27.6582,162.169 83.1635,215.002 55.4918,52.8326 131.663,79.3299 228.325,79.3299 89.1703,0 156.176,-22.5018 201.166,-67.6673 44.8416,-45.1656 67.3434,-109.998 67.3434,-194.836l0 -61.4986zm-175.006 103.006c-0.99888,36.8236 -10.0023,64.4952 -27.3342,83.1635 -17.1699,18.4928 -43.9912,27.8336 -80.3288,27.8336 -33.8404,0 -61.4986,-8.84143 -83.339,-26.3353 -21.6649,-17.6694 -33.8269,-45.8405 -36.4996,-84.6618l227.502 0z"
   horiz-adv-x="663"
   unicode="e" />
   <glyph
   id="glyph1010"
   d="M421.5 -14.9967c-54.169,0 -104.005,7.99104 -149.832,24.0001 -45.8405,15.9956 -85.1747,39.8337 -118.003,71.5009 -33.0035,31.4917 -58.502,71.0014 -76.4953,118.327 -18.1688,47.3388 -27.1722,102.007 -27.1722,164.005 0,57.6651 8.66596,109.998 25.8359,157 17.3319,47.0013 42.4929,87.3345 75.3344,120.837 31.6672,32.3286 70.826,57.3276 117.503,74.8215 46.8259,17.6694 97.8227,26.5108 153.328,26.5108 30.5063,0 58.1645,-1.6738 82.8395,-5.16988 24.4995,-3.3341 47.3253,-7.82906 68.1668,-13.3364 21.8269,-6.33074 41.494,-13.1609 59.3254,-20.828 17.8314,-7.66708 33.341,-14.6727 46.6639,-21.3409l0 -176.329 -21.4894 0c-9.17889,7.82906 -20.666,16.9945 -34.5018,27.6717 -13.8358,10.6637 -29.5074,21.1654 -47.1768,31.4917 -17.8314,10.3398 -37.323,19.0057 -58.1645,26.1733 -20.828,7.16764 -43.1678,10.6637 -66.8304,10.6637 -26.4973,0 -51.4963,-4.171 -75.3344,-12.4995 -23.8246,-8.16652 -45.827,-22.0023 -65.9935,-41.17 -19.1677,-18.6683 -34.8393,-43.1678 -46.6774,-73.6606 -11.8246,-30.6683 -17.8314,-67.8428 -17.8314,-111.335 0,-45.665 6.50622,-83.6764 19.3432,-114.331 12.8235,-30.5063 28.9945,-54.6684 48.6616,-72.1758 19.8291,-17.9933 41.9934,-30.6683 66.331,-38.3354 24.4995,-7.66708 48.6751,-11.5006 72.3378,-11.5006 22.8257,0 45.503,3.3341 67.8293,10.1778 22.1643,6.6682 42.8303,15.8336 61.836,27.4962 15.8336,9.32738 30.6683,19.1677 44.3287,29.8314 13.6739,10.6637 24.999,19.8291 33.8404,27.4962l19.4917 0 0 -173.657c-18.1553,-8.00454 -35.6627,-15.6716 -52.3332,-22.8392 -16.495,-7.16764 -33.9889,-13.3364 -52.3332,-18.5063 -23.6626,-6.83018 -45.989,-11.9866 -66.8304,-15.6581 -20.828,-3.49608 -49.4985,-5.33186 -85.9981,-5.33186z"
   horiz-adv-x="723"
   unicode="C" />
   <glyph
   id="glyph1012"
   d="M754.006 0l-180.838 0 -308.168 498.994 0 -498.994 -171.996 0 0 726.995 224.167 0 264.825 -416.492 0 416.492 172.01 0 0 -726.995z"
   horiz-adv-x="846"
   unicode="N" />
   <glyph
   id="glyph1014"
   d="M320.006 -9.50285c0,-61.6606 -19.0057,-109.998 -57.0036,-144.5 -37.9979,-34.6638 -86.997,-51.9957 -146.673,-51.9957 -31.8292,0 -60.8237,1.33634 -86.997,4.171 -26.1598,2.82116 -45.3275,5.65582 -57.3276,8.49048l0 126.331 13.6604 0c9.66484,-3.3341 21.8404,-6.15526 36.3376,-8.49048 14.6592,-2.33522 26.1598,-3.50958 34.5018,-3.50958 33.6649,0 56.6662,10.0023 68.9902,30.1689 12.3375,20.1666 18.5063,53.3321 18.5063,99.51l0 378.332 -104.005 0 0 118.988 280.01 0 0 -557.496zm0 636.502l-187.006 0 0 132.999 187.006 0 0 -132.999z"
   horiz-adv-x="402"
   unicode="j" />
   <glyph
   id="glyph1016"
   d="M615.998 63.1724c0,-51.3343 -7.32962,-94.5021 -22.0023,-129.679 -14.6592,-35.1633 -35.1633,-62.6594 -61.4986,-82.4886 -26.4973,-20.1666 -58.3265,-34.6773 -95.501,-43.6672 -37.323,-8.84143 -79.4919,-13.3364 -126.331,-13.3364 -38.1599,0 -75.6584,2.33522 -112.671,6.83018 -36.999,4.67044 -68.9902,10.1643 -96.0004,16.6705l0 137.494 21.5029 0c21.5029,-8.49048 47.6763,-16.333 78.6685,-23.3252 30.8303,-7.16764 58.502,-10.6772 83.0015,-10.6772 32.5041,0 59.0014,3.01014 79.3299,9.00342 20.342,6.00678 36.0002,14.4973 46.6639,25.4984 10.1778,10.5017 17.5074,23.6761 22.0023,40.0092 4.50846,16.1576 6.84368,35.6627 6.84368,58.3265l0 10.1643c-21.1789,-17.1564 -44.6796,-30.8303 -70.34,-40.8326 -25.8359,-10.1643 -54.5064,-15.1587 -86.1601,-15.1587 -76.8462,0 -136.172,23.1632 -178.003,69.3276 -41.6695,46.1644 -62.4975,116.329 -62.4975,210.669 0,45.1656 6.33074,84.1624 18.9922,117.004 12.837,32.828 30.6683,61.4986 53.8315,85.8227 21.5029,22.6773 48.0002,40.5086 79.5054,53.1701 31.3297,12.675 63.6583,19.0057 96.4999,19.0057 29.6694,0 56.6662,-3.50958 81.0037,-10.5017 24.1621,-7.00566 46.3264,-16.6705 66.1555,-29.008l6.34424 24.4995 170.66 0 0 -484.821zm-175.992 109.998l0 248.168c-10.0023,4.1575 -22.5018,7.4916 -37.0125,9.9888 -14.6592,2.5107 -27.8336,3.67156 -39.4962,3.67156 -46.1644,0 -80.8283,-13.1609 -103.829,-39.6717 -23.1632,-26.4973 -34.6638,-63.4963 -34.6638,-110.997 0,-52.6572 9.82682,-89.3322 29.4939,-110.16 19.6671,-20.8415 48.8371,-31.1677 87.4965,-31.1677 17.5074,0 34.8393,2.83466 51.6718,8.3285 16.8325,5.50734 32.3286,12.837 46.3399,21.8404z"
   horiz-adv-x="699"
   unicode="g" />
   <glyph
   id="glyph1018"
   d="M628.997 0l-175.992 0 0 60.6617c-32.5041,-24.8235 -62.1735,-43.4918 -89.1703,-56.3287 -26.8348,-12.837 -59.0014,-19.3297 -96.3379,-19.3297 -60.3242,0 -107.002,17.3319 -139.492,52.1577 -32.6661,34.8393 -48.9991,86.1736 -48.9991,154.178l0 356.654 175.992 0 0 -271.655c0,-27.6717 0.836899,-50.6729 2.67268,-69.0037 1.83578,-18.5063 5.99328,-33.6649 12.4995,-45.665 6.16876,-12.0001 15.4961,-20.8415 27.9956,-26.3353 12.4995,-5.50734 30.0069,-8.3285 52.4952,-8.3285 14.8347,0 31.5052,2.82116 49.674,8.3285 18.1688,5.49384 35.8382,13.6604 52.6707,24.3376l0 388.321 175.992 0 0 -547.993z"
   horiz-adv-x="712"
   unicode="u" />
   <glyph
   id="glyph1020"
   d="M674.001 228.5c0,-71.5009 -30.3308,-129.665 -91.006,-174.331 -60.6617,-44.8416 -142.988,-67.1679 -246.993,-67.1679 -60.1623,0 -112.671,5.33186 -157.337,15.8336 -44.8281,10.5017 -86.6596,24.0001 -125.67,40.1712l0 173.994 20.504 0c38.6728,-30.8303 82.0026,-54.5064 129.841,-71.1634 48.0002,-16.5085 93.9892,-24.837 138.156,-24.837 11.5006,0 26.3353,0.99888 45.0036,2.99664 18.5063,1.83578 33.503,5.16988 45.341,9.66484 14.1598,6.00678 25.9979,13.3364 35.3252,22.0023 9.1654,8.84143 13.8358,22.0023 13.8358,39.1723 0,15.9956 -6.6682,29.6694 -20.1666,41.332 -13.4984,11.5006 -33.341,20.3286 -59.3388,26.4973 -27.3342,6.50622 -56.1667,12.675 -86.6596,18.3308 -30.3308,5.66932 -59.0014,12.9989 -85.6742,21.6649 -61.1611,19.8426 -104.99,46.8394 -131.825,80.8418 -26.8348,34.0024 -40.3331,76.1578 -40.3331,126.669 0,67.6673 30.3308,122.835 90.9925,165.666 60.6752,42.8303 138.669,64.1578 234.008,64.1578 47.8247,0 95.0016,-4.65694 141.665,-13.8223 46.8259,-9.34087 87.159,-21.0035 121.337,-35.0013l0 -167.177 -20.0046 0c-29.17,23.3387 -65.1701,42.8438 -107.501,58.502 -42.5064,15.6716 -85.8362,23.5007 -130.003,23.5007 -15.6581,0 -31.1677,-0.99888 -46.5019,-3.15862 -15.4961,-2.17324 -30.3308,-6.00678 -44.6661,-11.8381 -12.6615,-4.9944 -23.5007,-12.3375 -32.6661,-22.1643 -9.1654,-9.84031 -13.6604,-21.1654 -13.6604,-33.8404 0,-19.1677 7.32962,-33.8269 22.0023,-44.1667 14.6592,-10.1643 42.1554,-19.4917 82.826,-27.9956 26.6728,-5.49384 52.3332,-11.0012 77.0082,-16.1711 24.4995,-5.15638 50.8214,-12.324 79.1545,-21.4894 55.6673,-18.1688 96.6754,-43.0058 123.173,-74.3355 26.4973,-31.3297 39.8337,-72.1758 39.8337,-122.336z"
   horiz-adv-x="710"
   unicode="S" />
   <glyph
   id="glyph1022"
   d="M615.998 0l-175.992 0 0 57.1656c-30.3443,-24.837 -58.6774,-42.9923 -85.0128,-54.6684 -26.4973,-11.6626 -56.9901,-17.4939 -91.492,-17.4939 -66.8304,0 -120.338,25.6604 -160.334,76.9947 -40.1712,51.4963 -60.1623,120.662 -60.1623,207.834 0,46.5019 6.83018,87.6719 20.3286,123.672 13.4984,36.0002 32.0046,66.8304 55.5053,92.4909 22.1643,24.3376 48.9991,43.3433 80.6663,56.8417 31.4917,13.4984 63.1589,20.1666 94.8261,20.1666 32.828,0 59.8383,-3.50958 80.8283,-10.5017 21.0035,-7.00566 42.6684,-15.8336 64.8462,-26.6728l0 234.17 175.992 0 0 -759.999zm-175.992 150.831l0 269.509c-12.3375,5.15638 -25.3364,8.98992 -39.0103,11.1632 -13.6604,2.33522 -26.1598,3.49608 -37.4985,3.49608 -46.1644,0 -80.8283,-14.4973 -103.829,-43.3298 -23.1632,-28.8325 -34.6638,-68.8417 -34.6638,-120.001 0,-53.8315 9.32738,-93.0038 27.8336,-117.166 18.4928,-24.3376 48.1622,-36.4996 89.1568,-36.4996 16.0091,0 32.8415,2.99664 50.6729,9.00342 17.9933,5.99328 33.6649,13.9978 47.3388,23.8246z"
   horiz-adv-x="699"
   unicode="d" />
   <glyph
   id="glyph1024"
   d="M614.999 0l-484.997 0 0 127.006 152.991 0 0 383.988 -152.991 0 0 119.002c23.3252,0 45.827,1.33634 67.3299,4.171 21.3274,2.67268 39.1723,7.5051 53.4941,14.3353 17.008,8.16652 29.6694,18.6683 38.0114,31.6672 8.49048,12.9989 13.3229,29.332 14.6592,48.8371l161.508 0 0 -602 149.994 0 0 -127.006z"
   horiz-adv-x="710"
   unicode="1" />
   <glyph
   id="glyph1026"
   d=""
   horiz-adv-x="341"
   unicode=" " />
   <glyph
   id="glyph1028"
   d="M414.994 143.164l0 114.831c-23.6626,-1.99776 -49.1611,-4.65694 -76.6573,-8.16652 -27.5097,-3.3341 -48.3377,-7.32962 -62.4975,-12.0001 -17.5074,-5.49384 -30.8438,-13.6604 -40.0092,-24.1621 -9.1654,-10.6637 -13.8358,-24.6615 -13.8358,-41.9934 0,-11.5006 1.01238,-20.666 2.83466,-28.0091 1.99776,-7.16764 6.84368,-13.9978 14.6727,-20.4905 7.32962,-6.50622 16.333,-11.3386 26.6593,-14.5108 10.3398,-3.15862 26.5108,-4.65694 48.4997,-4.65694 17.5074,0 35.1768,3.65806 53.0081,10.8257 17.9933,7.16764 33.8269,16.6705 47.3253,28.3331zm0 -84.9993c-9.32738,-7.16764 -21.1654,-15.8336 -34.9878,-25.9979 -14.0113,-10.0023 -27.1722,-17.9933 -39.5097,-23.8381 -17.1564,-7.82906 -35.0013,-13.6604 -53.4941,-17.4939 -18.5063,-3.83354 -38.8348,-5.8313 -60.9991,-5.8313 -51.8338,0 -95.339,16.1576 -130.34,48.4997 -35.1633,32.3286 -52.6572,73.4986 -52.6572,123.834 0,40.1577 8.98992,72.9992 26.8213,98.3357 17.8448,25.4984 43.1678,45.665 75.8339,60.3242 32.5041,14.6727 72.8372,25.1745 120.837,31.3297 48.0002,6.16876 97.8362,10.6772 149.508,13.6739l0 2.99664c0,30.1689 -12.3375,51.1723 -37.0125,62.6729 -24.6615,11.5006 -60.9991,17.3319 -108.999,17.3319 -28.8325,0 -59.6628,-5.16988 -92.3289,-15.3342 -32.828,-10.3398 -56.3287,-18.1688 -70.664,-23.6626l-15.9956 0 0 132.662c18.4928,4.83242 48.6616,10.6637 90.3311,17.3319 41.6695,6.6682 83.5009,10.0023 125.332,10.0023 99.6585,0 171.659,-15.3342 215.825,-46.1644 44.3422,-30.8303 66.5065,-79.168 66.5065,-145.175l0 -373.662 -174.008 0 0 58.1645z"
   horiz-adv-x="667"
   unicode="a" />
   <glyph
   id="glyph1030"
   d="M643.994 273.828c0,-90.1556 -26.3218,-161.157 -78.8305,-212.991 -52.6572,-51.8338 -126.493,-77.8316 -221.657,-77.8316 -95.177,0 -169.013,25.9979 -221.67,77.8316 -52.5087,51.8338 -78.8305,122.835 -78.8305,212.991 0,90.6686 26.4973,161.832 79.3299,213.666 52.9946,51.6718 126.669,77.5077 221.171,77.5077 95.825,0 169.823,-25.9979 221.994,-78.0071 52.3332,-52.1577 78.493,-123.159 78.493,-213.166zm-216.325 -132.824c11.5006,13.9978 19.9911,30.6683 25.8359,50.3354 5.65582,19.6671 8.49048,46.8259 8.49048,81.4897 0,32.0046 -2.99664,59.0014 -8.82794,80.6663 -5.8313,21.6649 -13.9978,39.0103 -24.4995,52.0092 -10.3398,13.3229 -23.0012,22.6638 -37.674,28.1576 -14.6592,5.50734 -30.4928,8.34199 -47.4873,8.34199 -17.008,0 -32.0046,-2.33522 -45.341,-6.84368 -13.1609,-4.49496 -25.8359,-13.4984 -37.8359,-27.1587 -10.8257,-12.675 -19.4917,-30.0069 -25.8359,-51.9957 -6.33074,-22.1778 -9.48936,-49.836 -9.48936,-83.177 0,-29.8314 2.83466,-55.6673 8.3285,-77.6561 5.49384,-21.8404 13.6739,-39.3343 24.4995,-52.6707 10.5017,-12.675 22.8392,-21.8404 37.4985,-27.6717 14.4973,-5.8313 31.0058,-8.82794 49.674,-8.82794 15.9956,0 31.1677,2.65918 45.827,7.99104 14.4973,5.34536 26.8348,14.3353 36.8371,27.0102z"
   horiz-adv-x="686"
   unicode="o" />
   <glyph
   id="glyph1032"
   d="M855 0l-188.005 0 0 486.832 -134.16 -315.835 -128.666 0 -134.174 315.835 0 -486.832 -176.991 0 0 726.995 217.823 0 162.844 -364.659 162.156 364.659 219.173 0 0 -726.995z"
   horiz-adv-x="947"
   unicode="M" />
   <glyph
   id="glyph1034"
   d="M258.993 0l-175.992 0 0 759.999 175.992 0 0 -759.999z"
   horiz-adv-x="341"
   unicode="l" />
   <glyph
   id="glyph1036"
   d="M258.993 0l-175.992 0 0 547.993 175.992 0 0 -547.993zm5.0079 626.999l-186.008 0 0 132.999 186.008 0 0 -132.999z"
   horiz-adv-x="341"
   unicode="i" />
  </font>
  <font
   vert-adv-y="1024"
   vert-origin-y="768"
   vert-origin-x="512"
   horiz-origin-y="0"
   horiz-origin-x="0"
   font-weight="400"
   font-style="normal"
   style="fill-rule:nonzero"
   font-variant="normal"
   horiz-adv-x="499"
   id="FontID2">
	<font-face
   id="font-face1039"
   font-family="黑体">
		<font-face-src>
			<font-face-name
   name="SimHei" />
		</font-face-src>
	</font-face>
   <missing-glyph
   id="missing-glyph1043"><path
     id="path1041"
     d="M0 0z" /></missing-glyph>
   <glyph
   id="glyph1045"
   d="M699.166 -54.6647c-2.49742,23.4982 -14.3345,51.9962 -35.1643,85.9973 67.8312,-2.66359 111.333,0.498507 131,9.66712 19.5004,9.16862 29.1675,47.4999 29.1675,115.336l-281.168 0 0 -129.001c0,-23.5031 1.33424,-67.6699 3.83166,-132.833l-81.9995 0c2.66848,67.665 3.99783,111.998 3.99783,132.833l0 93.8317c-39.1621,-39.167 -89.3305,-76.8336 -150.495,-113.332 -61.1697,-36.5034 -130.834,-70.3335 -209.001,-101.666 -10.3367,26.1667 -29.8322,49.4988 -58.5013,70.3335 59.8355,13.1664 126.332,37.1632 199.168,72.3324 72.9971,35.1643 126.332,70.9981 160.167,107.502l-273.499 0c10.498,77.9968 16.9981,153.496 19.6666,226.498l312.495 0 0 101.5 -160.162 0c-47.0014,0 -99.0025,-1.33424 -156.336,-3.83166l0 70.3335c57.3332,-2.66848 101.5,-4.00272 132.833,-4.00272l558.67 0c-2.66848,-46.8352 -4.00272,-87.1654 -4.00272,-121 0,-33.83 1.33424,-68.9992 4.00272,-105.498l-300.834 0 0 -101.5 363.333 0c-7.83438,-91.1681 -14.9992,-152.499 -21.4993,-183.67 -6.50014,-31.3326 -26.8363,-52.6658 -60.6663,-64.498 -33.8349,-11.666 -75.5042,-20.1651 -125.003,-25.331zm-378.831 839.833c-28.669,-23.5031 -49.5037,-44.3329 -62.4991,-62.4991l132.833 0c54.6647,0 97.6634,1.32935 128.83,3.83166l0 -66.3356 -156.165 0c15.4977,-23.4982 31.1665,-49.4988 46.8352,-78.163 -23.5031,-7.83438 -45.501,-16.8368 -66.3356,-27.3348 -15.6639,36.4985 -35.1643,71.6677 -58.6674,105.498l-62.4991 0c-28.6641,-41.6644 -65.1676,-87.1654 -109.334,-136.664 -23.4982,15.4977 -48.1646,28.6641 -74.3313,39.0008 47.0014,39.0008 84.668,79.4972 113.332,121.167 28.669,41.6644 53.3354,88.4996 74.1651,140.501 39.167,-20.8347 70.3335,-33.8349 93.8366,-39.0008zm242.167 -230.501c-26.0006,10.498 -50.833,20.8347 -74.17,31.3326 26.0006,23.3321 50.6669,56.5023 74.17,99.501 23.4982,42.9987 41.6644,85.3327 54.6647,126.997 28.669,-13.0003 58.6674,-24.6663 89.8339,-35.1643 -13.0003,-10.3318 -26.0006,-27.3348 -39.0008,-50.833l152.333 0c18.1662,0 57.3332,1.33424 117.169,3.99783l0 -70.3335c-39.0008,2.66848 -91.1681,3.83655 -156.17,3.83655 18.1662,-26.0006 36.3372,-53.3354 54.6696,-81.9995 -28.669,-7.83438 -52.1673,-16.8368 -70.3335,-27.3348 -18.3323,36.4985 -40.3351,73.0019 -66.5018,109.334l-62.4991 0c-23.3321,-41.6693 -48.1646,-78.0017 -74.1651,-109.334zm-93.6704 -335.832l0 101.5 -238.33 0c-5.1659,-31.3326 -9.16862,-65.1676 -11.666,-101.5l249.996 0zm296.836 163.999l0 101.5 -222.666 0 0 -101.5 222.666 0z"
   horiz-adv-x="1000"
   unicode="第" />
   <glyph
   id="glyph1047"
   d="M789 761.665c-2.49742,-46.8303 -3.83166,-89.8339 -3.83166,-128.83l0 -382.834c62.4991,0 114.5,1.33424 156.165,3.83166l0 -70.1673c-41.6644,2.50231 -80.6653,3.83655 -117.164,3.83655l-359.336 0c-20.8347,-23.5031 -44.8314,-51.5026 -72.3324,-84.0033 -27.3348,-32.5007 -64.3318,-67.0003 -111.167,-103.499 96.334,2.66848 235.667,10.498 417.832,23.4982 -33.83,39.0008 -62.4991,69.0041 -85.8312,89.8339 15.4977,10.3367 35.1643,27.3348 58.4964,50.6669l101.671 -101.5c38.9959,-39.0008 74.1651,-75.4994 105.332,-109.334 -23.3321,-18.3323 -44.1667,-36.4985 -62.4991,-54.6647 -13.0003,18.1662 -35.003,41.6644 -66.3356,70.1673 -98.9976,-7.66821 -209.666,-16.8319 -332.001,-27.3348 -122.496,-10.3318 -196.666,-20.8347 -222.666,-31.1665 -7.82949,28.669 -22.164,57.3332 -42.9987,86.0022 33.8349,13.0003 70.3335,35.6628 109.334,68.3297 39.167,32.5007 72.9971,73.5004 101.666,123.004l-175.831 0c-44.3378,0 -84.668,-1.33424 -121.167,-3.83655l0 70.1673c39.1621,-2.49742 91.1632,-3.83166 156.331,-3.83166l0 367.165c0,49.4988 -1.33424,97.6683 -3.83166,144.499l570.165 0zm-81.9995 -511.664l0 109.334 -406.166 0 0 -109.334 406.166 0zm0 339.83l0 109.334 -406.166 0 0 -109.334 406.166 0zm0 -167.997l0 105.498 -406.166 0 0 -105.498 406.166 0z"
   horiz-adv-x="1000"
   unicode="县" />
   <glyph
   id="glyph1049"
   d="M800.832 738.333c59.8355,0 109.334,1.33424 148.335,3.83166l0 -81.9995c-41.6693,2.66848 -89.8339,3.83655 -144.499,3.83655l-78.1678 0 0 -656.167c0,-36.5034 -11.666,-61.8344 -35.1692,-76.1689 -23.3321,-14.3345 -74.1651,-26.6652 -152.333,-37.1632 -2.49742,23.4982 -16.8319,57.3332 -42.8325,101.666 59.8355,0 99.501,1.83275 119.001,5.83058 19.6666,3.83655 29.3337,18.8357 29.3337,44.8363l0 617.166 -168.002 0c-31.1665,0 -68.9992,-1.16807 -113.166,-3.83655l0 81.9995c44.1667,-2.49742 83.3337,-3.83166 117.169,-3.83166l320.33 0zm-422.001 -472.668c-59.8306,-91.1632 -112.496,-170.665 -158.164,-238.33 -45.501,-67.6699 -73.5004,-108 -83.9984,-121.167 -20.8347,20.9959 -49.5037,41.8306 -85.836,62.4991 23.3321,15.6639 63.1686,60.6663 119.168,134.831 55.8328,74.17 104.667,147.837 146.331,220.668 15.6688,-15.4977 36.5034,-35.1643 62.4991,-58.5013zm-300.663 293c64.9965,-31.3326 131.498,-72.9971 199.163,-124.998 -20.8298,-18.3323 -38.9959,-42.9987 -54.6647,-74.3313 -59.8355,54.6647 -122.335,98.9976 -187.502,132.833 15.6688,20.8298 30.0033,42.9987 43.0036,66.4969zm70.3335 250.001c64.9965,-36.4985 121,-78.1678 167.831,-124.998 -23.3321,-23.5031 -40.3302,-47.0014 -50.6669,-70.3335 -54.6647,52.0011 -110.664,96.334 -167.997,132.833 15.6639,15.4977 32.5007,36.3324 50.833,62.4991z"
   horiz-adv-x="1000"
   unicode="汀" />
   <glyph
   id="glyph1051"
   d="M761.665 417.998c67.836,0 129.001,1.33424 183.67,3.83655l0 -101.5c-54.6696,2.66359 -114.666,3.83166 -179.668,3.83166l-515.666 0c-67.6699,0 -132.833,-1.16807 -195.337,-3.83166l0 101.5c62.504,-2.50231 127.667,-3.83655 195.337,-3.83655l511.664 0z"
   horiz-adv-x="1000"
   unicode="一" />
   <glyph
   id="glyph1053"
   d="M543.001 812.498c-2.66848,-72.8309 -4.00272,-141.996 -4.00272,-206.998l339.835 0c-2.50231,-52.1673 -3.83166,-123.669 -3.83166,-214.832 0,-88.4996 1.32935,-155.001 3.83166,-199.334l-85.8312 0 0 58.6674 -254.004 0 0 -168.002c0,-31.1665 1.33424,-89.8339 4.00272,-175.831l-93.8366 0c5.33696,46.9965 7.83438,101.666 7.83438,164.165l0 179.668 -253.833 0 0 -58.6674 -85.9973 0c2.66359,39.167 3.99783,105.498 3.99783,199.334 0,96.334 -1.33424,167.997 -3.99783,214.832l339.83 0c0,70.3335 -1.33424,139.333 -3.83166,206.998l89.8339 0zm250.001 -499.998l0 230.501 -254.004 0 0 -230.501 254.004 0zm-336.003 0l0 230.501 -253.833 0 0 -230.501 253.833 0z"
   horiz-adv-x="1000"
   unicode="中" />
   <glyph
   id="glyph1055"
   d="M273.499 437.498l0 257.836c0,23.4982 -1.33424,57.3332 -3.99783,101.5l85.9973 0c-2.66359,-49.4988 -3.99783,-81.9995 -3.99783,-97.6683l0 -261.667 472.668 0c33.83,0 70.3335,1.33424 109.496,3.83655l0 -78.0017c-49.4988,2.50231 -95.1659,3.83166 -136.83,3.83166l-226.503 0c18.1711,-51.9962 46.1705,-102.829 84.0033,-152.333 37.6666,-49.4988 82.6642,-90.4986 134.665,-122.999 52.1673,-32.6669 99.0025,-55.3343 140.667,-68.3345 -33.8349,-20.8298 -59.8355,-46.9965 -78.1678,-78.163 -54.6647,28.6641 -105.332,62.4991 -152.333,101.5 -46.8303,39.167 -88.4996,86.6669 -124.998,142.666 -36.3324,55.9989 -63.6672,115.165 -81.9995,177.664l-140.667 0 0 -308.498c75.6655,46.8303 126.332,81.9995 152.333,105.332 18.3323,-28.498 36.4985,-54.6647 54.8309,-77.9968 -49.4988,-23.5031 -98.9976,-52.8368 -148.496,-88.0011 -49.5037,-35.1692 -86.0022,-64.3367 -109.334,-87.835 -20.8347,28.669 -40.3351,53.3354 -58.6674,74.1651 20.8347,20.8347 31.3326,48.1695 31.3326,82.0044l0 300.829 -89.8339 0c-36.4985,0 -78.1678,-1.32935 -124.998,-3.83166l0 78.0017c46.8303,-2.50231 85.8312,-3.83655 117.164,-3.83655l97.6683 0zm492.168 296.836c-28.669,-23.337 -71.003,-63.1686 -127.002,-119.168 -55.9989,-55.9989 -111.333,-109.999 -165.998,-162 -23.5031,31.1665 -42.9987,52.0011 -58.6674,62.4991 44.3329,31.1665 93.8317,75.4994 148.501,132.833 54.6647,57.167 96.334,106.666 124.998,148.335 20.8347,-18.1662 46.8352,-39.0008 78.1678,-62.4991z"
   horiz-adv-x="1000"
   unicode="长" />
   <glyph
   id="glyph1057"
   d="M570.331 734.335c0,33.83 -1.32935,62.4991 -3.99783,85.9973l78.1678 0c-2.50231,-23.4982 -3.83655,-52.1673 -3.83655,-85.9973l210.834 0c-2.49742,-31.1665 -3.83166,-75.4994 -3.83166,-132.833 36.4985,0 68.9992,1.32935 97.6683,3.99783l0 -66.5018c-26.0006,2.66848 -58.6674,4.00272 -97.6683,4.00272 0,-57.3332 1.33424,-101.666 3.83166,-132.833l-210.834 0 0 -78.1678c101.5,0 169.17,1.33424 203.171,3.99783l0 -66.4969c-31.3375,2.66359 -99.0025,3.99783 -203.171,3.99783l0 -78.1678 117.169 0c49.4988,0 94.9998,1.33424 136.669,3.83655l0 -70.3335c-41.6693,2.66359 -87.1703,3.99783 -136.669,3.99783l-117.169 0c0,-44.3329 1.33424,-81.9995 3.83655,-113.332l-78.1678 0c2.66848,31.3326 3.99783,68.9992 3.99783,113.332l-89.829 0c-39.167,0 -82.0044,-1.33424 -129.001,-3.99783l0 70.3335c44.3329,-2.50231 88.6658,-3.83655 132.833,-3.83655l85.9973 0 0 78.1678c-72.9971,0 -136.664,-1.33424 -191.5,-3.99783l0 66.4969c57.3332,-2.66359 121.167,-3.99783 191.5,-3.99783l0 78.1678c-67.665,0 -124.998,-1.33424 -171.833,-3.83655l0 66.3356c46.8352,-2.66848 104.168,-3.83655 171.833,-3.83655l0 74.17 -70.3335 0c-46.8303,0 -98.9976,-1.33424 -156.165,-4.00272l0 66.5018c57.167,-2.66848 109.334,-3.99783 156.165,-3.99783l70.3335 0 0 74.3313c-70.3335,0 -128.996,-1.33424 -175.831,-4.00272l0 66.5018c46.8352,-2.66848 105.498,-3.99783 175.831,-3.99783zm-249.996 -11.666c-7.83438,-20.8347 -46.8352,-113.337 -117.169,-277.336l128.835 0c-13.0003,-101.5 -25.3359,-173.168 -37.0019,-214.832 -11.8322,-41.6693 -24.1678,-79.5021 -37.1632,-113.332 36.4985,-33.8349 78.163,-59.1708 124.998,-76.1689 46.8352,-16.8319 101.5,-28.6641 163.999,-35.1643 62.4991,-6.50014 129.001,-9.16862 199.334,-7.83438 70.1673,1.33424 140.501,5.83058 210.834,13.665 -18.1662,-26.0006 -28.669,-54.6647 -31.1665,-85.8312 -119.837,-2.66848 -218.17,-2.0038 -295.004,1.83275 -76.8336,3.99783 -140.667,11.8322 -191.329,23.4982 -50.8379,11.666 -92.5024,26.6652 -125.003,45.0025 -32.6669,18.1662 -63.1638,38.9959 -91.8328,62.4991 -31.3326,-47.0014 -71.6677,-95.1659 -121.167,-144.67 -18.1662,20.8347 -39.0008,39.167 -62.4991,54.6696 52.1673,36.4985 96.5002,83.4999 132.833,140.667 -23.3321,31.3326 -42.334,59.9968 -56.6685,85.9973 -14.3296,26.0006 -27.9995,56.0038 -40.9998,89.8339 13.0003,2.66848 35.1692,11.666 66.5018,27.3348 7.83438,-31.1665 29.8322,-76.8336 66.3307,-136.669 18.3372,54.6696 32.6669,123.669 43.0036,207.003 -57.3332,0 -102.834,-6.50014 -136.669,-19.5004l-19.5004 70.3335c31.1665,10.3318 57.167,40.9998 78.0017,91.6666 20.8347,50.833 39.167,96.9987 54.6647,138.668 -51.9962,0 -100.166,-1.16807 -144.499,-3.83655l0 66.3356c52.1673,-2.50231 131.498,-3.83166 238.335,-3.83166zm456.999 -253.838l0 74.17 -136.669 0 0 -74.17 136.669 0zm0 132.671l0 74.3313 -136.669 0 0 -74.3313 136.669 0z"
   horiz-adv-x="1000"
   unicode="建" />
   <glyph
   id="glyph1059"
   d="M765.668 554.667c-28.669,-15.6688 -69.6688,-36.4985 -123.165,-62.4991 -53.3354,-26.0006 -112.501,-50.833 -177.669,-74.17l367.165 0c-2.49742,-39.167 -3.83166,-119.832 -3.83166,-242.167 0,-119.832 1.33424,-210.995 3.83166,-273.499l-78.163 0 0 39.0008 -449.169 0 0 -42.8325 -78.1678 0c2.66848,80.6653 4.00272,226.498 4.00272,437.498 -49.4988,-15.6639 -94.9998,-28.6641 -136.669,-39.167 -7.82949,20.8347 -23.4982,44.3329 -46.9965,70.3335 62.4991,7.83438 131.498,23.5031 206.998,46.8352 75.6655,23.4982 140.667,47.0014 195.332,70.3335 0,172 -1.16318,280 -3.83166,324.333l86.0022 0c-2.66848,-39.167 -4.00272,-138.165 -4.00272,-296.998 83.3337,39.167 140.667,72.9971 171.833,101.666 15.6688,-20.8347 37.8328,-40.3351 66.5018,-58.6674zm-11.8322 -281.168l0 81.9995 -449.169 0 0 -81.9995 449.169 0zm0 -140.667l0 81.9995 -449.169 0 0 -81.9995 449.169 0zm0 -132.833l0 74.1651 -449.169 0 0 -74.1651 449.169 0zm-472.501 597.666c-34.0011,-33.8349 -80.8314,-72.9971 -140.667,-117.164 -13.0003,23.3321 -32.6669,41.6644 -58.6674,54.6647 57.3332,36.4985 101.666,70.3335 132.833,101.5 31.3326,31.3326 55.9989,61.331 74.17,89.8339 18.3323,-18.1662 41.6644,-35.1692 70.3335,-50.6669l-78.0017 -78.1678zm445.167 140.667c88.6658,-62.4991 158.999,-118.498 211,-168.002 -18.1662,-15.6639 -37.8328,-35.1643 -58.6674,-58.6625 -31.1665,39.167 -97.5021,96.3291 -199.168,172 15.6688,13.0003 31.3326,31.1665 46.8352,54.6647z"
   horiz-adv-x="1000"
   unicode="省" />
   <glyph
   id="glyph1061"
   d="M937.501 339.835c-2.66848,-39.0008 -3.83655,-110.669 -3.83655,-214.837 0,-101.5 1.16807,-173.163 3.83655,-214.832l-78.1678 0 0 46.8352 -374.999 0 0 -46.8352 -74.1651 0c2.66359,33.8349 3.83166,104.168 3.83166,211 0,106.666 -1.16807,179.668 -3.83166,218.669l527.332 0zm-742.169 -437.503c2.66848,41.6693 3.83655,87.3365 3.83655,136.669l0 238.33c-33.8349,-44.3329 -70.3335,-84.6631 -109.334,-120.995 -13.0003,20.8298 -29.9984,40.3302 -50.833,58.4964 57.3332,46.8352 106.832,97.0036 148.501,150.334 41.6644,53.5015 74.1651,111.333 97.6634,173.832l-109.334 0c-28.6641,0 -66.4969,-1.16318 -113.332,-3.83166l0 70.3335c44.3329,-2.66848 80.6653,-3.99783 109.334,-3.99783l206.998 0c-7.66332,-31.1713 -21.9978,-69.6688 -42.8325,-115.17 -20.8298,-45.501 -42.9987,-86.6669 -66.4969,-122.999l0 -50.833c13.0003,10.498 28.6641,24.6663 46.8303,42.9987 23.5031,-36.4985 52.1673,-76.8336 86.0022,-121.167 -18.1662,-10.3318 -35.1692,-26.0006 -50.833,-46.8303 -28.5029,44.3329 -55.9989,81.9995 -81.9995,113.332l0 -253.999c0,-54.6696 1.32935,-102.834 3.99783,-144.503l-78.1678 0zm683.502 707c-2.50231,-33.83 -3.83166,-67.665 -3.83166,-101.5 0,-31.3326 1.32935,-66.4969 3.83166,-105.498l-417.832 0c2.49742,39.0008 3.83166,75.4994 3.83166,109.334 0,33.83 -1.33424,66.4969 -3.83166,97.6634l417.832 0zm-472.501 144.503c41.6693,-2.50231 87.1703,-3.83655 136.669,-3.83655l257.831 0c46.8352,0 91.1681,1.33424 132.833,3.83655l0 -70.1673c-41.6644,2.49742 -85.9973,3.83166 -132.833,3.83166l-253.999 0c-67.665,0 -114.5,-1.33424 -140.501,-3.83166l0 70.1673zm398.336 -292.834l0 89.8339 -273.333 0 0 -89.8339 273.333 0zm-168.002 -445.333l0 105.498 -152.333 0 0 -105.498 152.333 0zm222.666 0l0 105.498 -148.335 0 0 -105.498 148.335 0zm-222.666 163.999l0 101.666 -152.333 0 0 -101.666 152.333 0zm222.666 0l0 101.666 -148.335 0 0 -101.666 148.335 0zm-648.333 632.83c39.0008,-38.9959 79.331,-83.3289 121,-132.833 -26.0006,-15.6639 -45.501,-31.1665 -58.5013,-46.8303 -39.167,54.6647 -76.8336,98.9976 -113.332,132.833 23.4982,15.6639 40.3351,31.1665 50.833,46.8303z"
   horiz-adv-x="1000"
   unicode="福" />
   <glyph
   id="glyph1063"
   d="M761.665 417.998l0 -81.9995c-36.3324,-7.82949 -69.6639,-20.1651 -99.4961,-37.1632 -30.0033,-17.003 -64.5029,-34.4996 -103.504,-52.6707l0 -35.1643 246.003 0c31.3326,0 71.6628,1.16807 121.167,3.83166l0 -78.163c-52.1673,2.66359 -92.5024,3.99783 -121.167,3.99783l-246.003 0 0 -160.167c0,-36.4985 -14.3296,-59.3321 -42.9987,-68.3345 -28.6641,-9.16373 -75.4994,-16.3334 -140.667,-21.4993 -7.83438,28.669 -20.8347,57.3332 -39.0008,85.836l105.336 0c26.1667,0 39.167,14.3296 39.167,42.9987l0 121.167 -269.502 0c-41.6693,0 -88.6658,-1.33424 -140.667,-3.99783l0 78.163c54.6647,-2.66359 100.166,-3.83166 136.664,-3.83166l273.504 0c0,20.8347 -2.66848,44.1667 -7.83438,70.3335l140.667 70.1673 -214.837 0c-49.4988,0 -105.498,-1.16807 -167.997,-3.83655l0 74.17c57.3332,-2.50231 111.998,-3.83655 163.999,-3.83655l367.165 0zm74.3362 359.336c-52.1673,-59.8355 -96.334,-121 -132.833,-183.499l214.832 0c-2.66848,-23.5031 -4.00272,-50.833 -4.00272,-82.1657 0,-31.1665 1.33424,-61.1697 4.00272,-89.8339l-81.9995 0 0 105.498 -675.834 0 0 -109.334 -81.9995 0c2.49742,31.1665 3.83166,62.504 3.83166,93.6704 0,31.3326 -1.33424,58.6625 -3.83166,82.1657l543.001 0c20.8298,36.3324 42.1629,74.8347 64.3318,115.165 22.164,40.3351 39.8317,80.0006 52.832,119.168 41.6693,-23.4982 74.1651,-40.3351 97.6683,-50.833zm-374.999 39.0008c49.4988,-62.4991 81.9995,-108 97.6634,-136.669 -23.4982,-18.1662 -48.1646,-35.1643 -74.3313,-50.833 -20.8347,41.6693 -52.0011,88.6658 -93.6655,140.667 26.0006,18.3323 49.4988,33.8349 70.3335,46.8352zm-265.67 -27.3348c46.8352,-39.0008 87.1703,-79.331 121,-121 -28.498,-20.8347 -50.6669,-40.3302 -66.3307,-58.6674 -33.8349,49.5037 -72.8358,92.5024 -117.169,129.001 28.669,20.8347 49.4988,37.6666 62.4991,50.6669z"
   horiz-adv-x="1000"
   unicode="学" />
  </font>
  <font
   vert-adv-y="1024"
   vert-origin-y="768"
   vert-origin-x="512"
   horiz-origin-y="0"
   horiz-origin-x="0"
   font-weight="700"
   style="fill-rule:nonzero"
   font-variant="normal"
   horiz-adv-x="752"
   id="FontID1">
	<font-face
   id="font-face1066"
   font-family="微软雅黑">
		<font-face-src>
			<font-face-name
   name="Microsoft YaHei Bold" />
		</font-face-src>
	</font-face>
   <missing-glyph
   id="missing-glyph1070"><path
     id="path1068"
     d="M0 0z" /></missing-glyph>
   <glyph
   id="glyph1072"
   d="M366.168 775.834l618.162 0 0 -133.659 -185.499 0 0 -577.181c0,-106.156 -45.8319,-163.822 -137.658,-172.834 -50.8454,-3.3288 -121.501,-5.31796 -212.008,-5.98778 -8.99182,53.5044 -21.8402,103.822 -37.997,151.501 78.1659,-5.33826 136.339,-6.51552 174.823,-3.99862 44.1675,1.98916 66.3527,26.3259 66.3527,73.3351l0 535.166 -286.175 0 0 133.659zm-208.009 -485.335c59.3501,-27.9903 104.167,-46.1567 134.837,-54.6613 -55.3312,-164.674 -95.9872,-286.175 -122.171,-364.341 -49.9929,20.3382 -96.3322,37.1648 -138.653,50.8454 43.6601,104.167 85.6557,226.988 125.987,368.157zm-58.4976 292.001c67.0023,-49.5058 130.168,-99.8234 189.336,-151.339l-95.6624 -104.492c-63.166,59.1674 -123.673,110.662 -181.663,154.322l87.9899 101.508zm54.6816 249.01c56.6505,-41.6709 116.833,-89.837 180.648,-144.519l-97.6516 -101.488c-41.6709,38.9916 -99.0115,90.1618 -171.839,153.328l88.8424 92.6787z"
   horiz-adv-x="1000"
   unicode="汀" />
   <glyph
   id="glyph1074"
   d="M29.33 424.341l943.329 0 0 -144.498 -943.329 0 0 144.498z"
   horiz-adv-x="1000"
   unicode="一" />
   <glyph
   id="glyph1076"
   d="M424.828 834.494l148.497 0 0 -172.834 364.179 0 0 -547.831 -144.498 0 0 67.3473 -219.681 0 0 -314.511 -148.497 0 0 314.511 -219.823 0 0 -70.3514 -144.498 0 0 550.835 364.321 0 0 172.834zm368.177 -307.67l-219.681 0 0 -210.831 219.681 0 0 210.831zm-588 -210.831l219.823 0 0 210.831 -219.823 0 0 -210.831z"
   horiz-adv-x="1000"
   unicode="中" />
   <glyph
   id="glyph1078"
   d="M27.3408 439.99l133.822 0 0 391.52 135.669 0 0 -391.52 670.997 0 0 -125.987 -370.167 0c76.8466,-133.497 206.345,-227.008 388.678,-280.33 -29.33,-38.3421 -62.1714,-83.3418 -98.6665,-134.674 -205.005,85.1686 -346.337,223.496 -423.833,415.004l-167.008 0 0 -272.495 251.994 82.9967c-1.98916,-45.5071 -2.33422,-88.1726 -0.994581,-127.996 -192.989,-58.8426 -309.497,-104.675 -349.504,-137.678l-74.3297 125.013c24.8442,24.8239 37.1648,62.821 37.1648,114.316l0 215.844 -133.822 0 0 125.987zm754.826 383.685l102.665 -122.009c-138.166,-77.4961 -284.003,-150.324 -437.494,-218.828l-80.1754 105.486c173.179,81.515 311.507,159.843 415.004,235.35z"
   horiz-adv-x="1000"
   unicode="长" />
  </font>
  <font
   vert-adv-y="1024"
   vert-origin-y="768"
   vert-origin-x="512"
   horiz-origin-y="0"
   horiz-origin-x="0"
   font-weight="400"
   style="fill-rule:nonzero"
   font-variant="normal"
   horiz-adv-x="667"
   id="FontID0">
	<font-face
   id="font-face1081"
   font-family="Arial">
		<font-face-src>
			<font-face-name
   name="Arial" />
		</font-face-src>
	</font-face>
   <missing-glyph
   id="missing-glyph1085"><path
     id="path1083"
     d="M0 0z" /></missing-glyph>
   <glyph
   id="glyph1087"
   d="M-1.50345 0l274.66 715.996 104.18 0 291.492 -715.996 -107.836 0 -82.8371 216.998 -301.486 0 -77.6782 -216.998 -100.495 0zm206.002 293.998l244.001 0 -74.6713 198.514c-22.4928,60.3148 -39.5024,110.164 -51.3236,149.49 -9.84612,-46.6659 -22.9939,-92.5063 -39.5024,-137.846l-78.5036 -210.159z"
   horiz-adv-x="667"
   unicode="A" />
   <glyph
   id="glyph1089"
   d="M47.9925 348.505c0,118.655 32.0146,211.662 95.8375,278.816 63.8229,67.1835 146.159,100.672 247.185,100.672 66.1518,0 125.641,-15.8304 178.822,-47.3144 53.004,-31.5135 93.5086,-75.5262 121.337,-132.009 27.8285,-56.3351 41.8313,-120.335 41.8313,-191.822 0,-72.5193 -14.6807,-137.521 -44.0127,-194.682 -29.332,-57.3374 -70.839,-100.672 -124.491,-130.004 -53.8294,-29.5089 -111.845,-44.1601 -173.987,-44.1601 -67.5078,0 -127.675,16.3316 -180.856,48.8179 -53.004,32.5158 -93.3318,76.8528 -120.659,133.188 -27.3274,56.1582 -41.0058,115.648 -41.0058,178.498zm98.019 -1.68033c0,-86.1683 23.1413,-154 69.4829,-203.496 46.3416,-49.4959 104.504,-74.3176 174.518,-74.3176 71.3107,0 129.827,24.9985 175.992,74.9956 45.9879,49.9971 68.9818,120.983 68.9818,212.989 0,58.1628 -9.81664,109.015 -29.4794,152.35 -19.6628,43.3347 -48.4936,77.0002 -86.3451,100.82 -37.9989,23.8488 -80.5082,35.8469 -127.675,35.8469 -66.9772,0 -124.639,-23.0234 -172.985,-69.0113 -48.3462,-45.9879 -72.4898,-122.664 -72.4898,-230.175z"
   horiz-adv-x="777"
   unicode="O" />
   <glyph
   id="glyph1091"
   d="M19.987 0l0 87.4948 366.694 458.994c26.3251,32.3389 50.9994,60.8455 74.4944,85.5197l-399.18 0 0 83.9868 511.998 0 0 -83.9868 -402.158 -496.669 -43.0104 -51.3531 457.166 0 0 -83.9868 -566.004 0z"
   horiz-adv-x="610"
   unicode="Z" />
   <glyph
   id="glyph1093"
   d="M93.0075 0l0 715.996 94.9826 0 0 -715.996 -94.9826 0z"
   horiz-adv-x="277"
   unicode="I" />
   <glyph
   id="glyph1095"
   d="M259.006 0l0 632.009 -236.012 0 0 83.9868 567.007 0 0 -83.9868 -236.012 0 0 -632.009 -94.9826 0z"
   horiz-adv-x="610"
   unicode="T" />
   <glyph
   id="glyph1097"
   d="M586.994 251.164l95.0121 -23.9962c-19.8396,-77.8256 -55.5097,-136.991 -107.01,-177.849 -51.5005,-40.829 -114.498,-61.3171 -188.992,-61.3171 -77.0002,0 -139.673,15.6536 -187.99,47.167 -48.3462,31.3366 -85.0186,76.8233 -110.194,136.342 -25.1459,59.6663 -37.8221,123.489 -37.8221,191.822 0,74.4944 14.1796,139.496 42.6567,195.006 28.5066,55.4802 69.0113,97.6652 121.514,126.496 52.5028,28.8308 110.341,43.1578 173.339,43.1578 71.6644,0 131.832,-18.1593 180.502,-54.6548 48.8179,-36.4955 82.8371,-87.6717 101.999,-153.676l-93.0075 -21.9916c-16.5085,52.0017 -40.6816,90.0006 -72.1656,113.673 -31.5135,23.8194 -71.1633,35.6701 -119.008,35.6701 -54.8317,0 -100.82,-13.1773 -137.669,-39.5024 -36.8198,-26.3546 -62.8206,-61.8478 -77.6487,-106.185 -15.005,-44.4844 -22.5223,-90.3249 -22.5223,-137.492 0,-60.8455 8.84382,-113.997 26.502,-159.336 17.6876,-45.4867 45.1919,-79.329 82.5128,-101.822 37.3209,-22.5223 77.6782,-33.6655 121.16,-33.6655 53.004,0 97.6652,15.3293 134.338,45.811 36.6724,30.688 61.494,75.9979 74.4944,136.342z"
   horiz-adv-x="722"
   unicode="C" />
   <glyph
   id="glyph1099"
   d="M75.9979 0l0 715.996 97.341 0 375.656 -561.995 0 561.995 91.0029 0 0 -715.996 -97.341 0 -375.656 561.995 0 -561.995 -91.0029 0z"
   horiz-adv-x="722"
   unicode="N" />
   <glyph
   id="glyph1101"
   d="M278.846 0l0 303.343 -276.016 412.653 113.997 0 141.501 -216.674c26.3251,-40.1509 50.852,-80.3313 73.1679,-120.482 21.8442,37.4978 48.3462,79.5059 79.1817,126.172l138.642 210.984 110.518 0 -286.009 -412.653 0 -303.343 -94.9826 0z"
   horiz-adv-x="667"
   unicode="Y" />
   <glyph
   id="glyph1103"
   d="M81.0094 0l0 715.996 94.9826 0 0 -295 369.996 0 0 295 95.0121 0 0 -715.996 -95.0121 0 0 337.008 -369.996 0 0 -337.008 -94.9826 0z"
   horiz-adv-x="722"
   unicode="H" />
   <glyph
   id="glyph1105"
   d=""
   horiz-adv-x="277"
   unicode=" " />
   <glyph
   id="glyph1107"
   d="M412.004 280.998l0 84.0163 302.989 0 0 -265.344c-46.489,-36.9966 -94.4815,-65.0021 -144.007,-83.6625 -49.4959,-18.6605 -100.318,-28.0054 -152.32,-28.0054 -70.3378,0 -134.161,15.005 -191.675,45.1624 -57.3374,30.01 -100.82,73.669 -130.004,130.505 -29.332,56.9837 -43.9833,120.659 -43.9833,190.82 0,69.6893 14.5039,134.691 43.659,195.183 29.1846,60.3148 71.0159,105.153 125.671,134.338 54.6548,29.332 117.652,43.9833 188.992,43.9833 51.6774,0 98.5201,-8.31319 140.351,-25.1459 41.8313,-16.8622 74.6418,-40.1804 98.3138,-70.0136 23.8488,-30.01 41.8313,-69.1587 54.1831,-117.328l-85.5197 -23.3477c-10.8189,36.3481 -24.1436,65.0021 -39.9741,86.0209 -16.0073,20.8125 -38.677,37.4978 -68.3332,49.9971 -29.5089,12.4993 -62.3489,18.8373 -98.5201,18.8373 -43.1578,0 -80.5082,-6.69182 -112.169,-19.8396 -31.484,-13.1773 -56.8363,-30.5112 -76.3222,-52.1785 -19.3385,-21.4905 -34.3435,-45.1624 -45.015,-70.839 -18.1593,-44.4844 -27.3274,-92.4769 -27.3274,-144.331 0,-63.9998 10.9958,-117.505 32.84,-160.663 21.9916,-43.0104 54.0062,-74.9956 95.8375,-95.8375 42.0081,-20.8125 86.4925,-31.3366 133.66,-31.3366 41.0058,0 81.0094,8.0184 120.011,23.8488 39.0012,16.0073 68.4806,32.84 88.6445,50.9994l0 134.161 -209.982 0z"
   horiz-adv-x="777"
   unicode="G" />
  </font>
</defs>
</svg>
